  0
SECTION
  2
HEADER
  9
$ACADVER
  1
AC1014
  9
$ACADMAINTVER
 70
     9
  9
$DWGCODEPAGE
  3
ANSI_1252
  9
$INSBASE
 10
0.0
 20
0.0
 30
0.0
  9
$EXTMIN
 10
56.08497616651749
 20
31.84716577571215
 30
0.0
  9
$EXTMAX
 10
189.898986743235
 20
88.54716577571214
 30
0.0
  9
$LIMMIN
 10
0.0
 20
0.0
  9
$LIMMAX
 10
12.0
 20
9.0
  9
$ORTHOMODE
 70
     0
  9
$REGENMODE
 70
     1
  9
$FILLMODE
 70
     1
  9
$QTEXTMODE
 70
     0
  9
$MIRRTEXT
 70
     0
  9
$DRAGMODE
 70
     2
  9
$LTSCALE
 40
1.0
  9
$OSMODE
 70
   511
  9
$ATTMODE
 70
     1
  9
$TEXTSIZE
 40
0.2
  9
$TRACEWID
 40
0.05
  9
$TEXTSTYLE
  7
STANDARD
  9
$CLAYER
  8
0
  9
$CELTYPE
  6
BYLAYER
  9
$CECOLOR
 62
   256
  9
$CELTSCALE
 40
1.0
  9
$DELOBJ
 70
     1
  9
$DISPSILH
 70
     0
  9
$DIMSCALE
 40
1.0
  9
$DIMASZ
 40
0.18
  9
$DIMEXO
 40
0.0625
  9
$DIMDLI
 40
0.38
  9
$DIMRND
 40
0.0
  9
$DIMDLE
 40
0.0
  9
$DIMEXE
 40
0.18
  9
$DIMTP
 40
0.0
  9
$DIMTM
 40
0.0
  9
$DIMTXT
 40
0.18
  9
$DIMCEN
 40
0.09
  9
$DIMTSZ
 40
0.0
  9
$DIMTOL
 70
     0
  9
$DIMLIM
 70
     0
  9
$DIMTIH
 70
     1
  9
$DIMTOH
 70
     1
  9
$DIMSE1
 70
     0
  9
$DIMSE2
 70
     0
  9
$DIMTAD
 70
     0
  9
$DIMZIN
 70
     0
  9
$DIMBLK
  1

  9
$DIMASO
 70
     1
  9
$DIMSHO
 70
     1
  9
$DIMPOST
  1

  9
$DIMAPOST
  1

  9
$DIMALT
 70
     0
  9
$DIMALTD
 70
     2
  9
$DIMALTF
 40
25.4
  9
$DIMLFAC
 40
1.0
  9
$DIMTOFL
 70
     0
  9
$DIMTVP
 40
0.0
  9
$DIMTIX
 70
     0
  9
$DIMSOXD
 70
     0
  9
$DIMSAH
 70
     0
  9
$DIMBLK1
  1

  9
$DIMBLK2
  1

  9
$DIMSTYLE
  2
STANDARD
  9
$DIMCLRD
 70
     0
  9
$DIMCLRE
 70
     0
  9
$DIMCLRT
 70
     0
  9
$DIMTFAC
 40
1.0
  9
$DIMGAP
 40
0.09
  9
$DIMJUST
 70
     0
  9
$DIMSD1
 70
     0
  9
$DIMSD2
 70
     0
  9
$DIMTOLJ
 70
     1
  9
$DIMTZIN
 70
     0
  9
$DIMALTZ
 70
     0
  9
$DIMALTTZ
 70
     0
  9
$DIMFIT
 70
     5
  9
$DIMUPT
 70
     0
  9
$DIMUNIT
 70
     2
  9
$DIMDEC
 70
     4
  9
$DIMTDEC
 70
     4
  9
$DIMALTU
 70
     2
  9
$DIMALTTD
 70
     2
  9
$DIMTXSTY
  7
STANDARD
  9
$DIMAUNIT
 70
     0
  9
$LUNITS
 70
     2
  9
$LUPREC
 70
     4
  9
$SKETCHINC
 40
0.1
  9
$FILLETRAD
 40
0.0
  9
$AUNITS
 70
     0
  9
$AUPREC
 70
     0
  9
$MENU
  1
.
  9
$ELEVATION
 40
0.0
  9
$PELEVATION
 40
0.0
  9
$THICKNESS
 40
0.0
  9
$LIMCHECK
 70
     0
  9
$CHAMFERA
 40
0.0
  9
$CHAMFERB
 40
0.0
  9
$CHAMFERC
 40
0.0
  9
$CHAMFERD
 40
0.0
  9
$SKPOLY
 70
     0
  9
$TDCREATE
 40
2452643.146717593
  9
$TDUPDATE
 40
2458213.476467593
  9
$TDINDWG
 40
0.0023785532
  9
$TDUSRTIMER
 40
2458213.392987269
  9
$USRTIMER
 70
     1
  9
$ANGBASE
 50
0.0
  9
$ANGDIR
 70
     0
  9
$PDMODE
 70
     0
  9
$PDSIZE
 40
0.0
  9
$PLINEWID
 40
0.0
  9
$COORDS
 70
     1
  9
$SPLFRAME
 70
     0
  9
$SPLINETYPE
 70
     6
  9
$SPLINESEGS
 70
     8
  9
$ATTDIA
 70
     0
  9
$ATTREQ
 70
     1
  9
$HANDLING
 70
     1
  9
$HANDSEED
  5
2FB
  9
$SURFTAB1
 70
     6
  9
$SURFTAB2
 70
     6
  9
$SURFTYPE
 70
     6
  9
$SURFU
 70
     6
  9
$SURFV
 70
     6
  9
$UCSNAME
  2

  9
$UCSORG
 10
0.0
 20
0.0
 30
0.0
  9
$UCSXDIR
 10
1.0
 20
0.0
 30
0.0
  9
$UCSYDIR
 10
0.0
 20
1.0
 30
0.0
  9
$PUCSNAME
  2

  9
$PUCSORG
 10
0.0
 20
0.0
 30
0.0
  9
$PUCSXDIR
 10
1.0
 20
0.0
 30
0.0
  9
$PUCSYDIR
 10
0.0
 20
1.0
 30
0.0
  9
$USERI1
 70
     0
  9
$USERI2
 70
     0
  9
$USERI3
 70
     0
  9
$USERI4
 70
     0
  9
$USERI5
 70
     0
  9
$USERR1
 40
0.0
  9
$USERR2
 40
0.0
  9
$USERR3
 40
0.0
  9
$USERR4
 40
0.0
  9
$USERR5
 40
0.0
  9
$WORLDVIEW
 70
     1
  9
$SHADEDGE
 70
     3
  9
$SHADEDIF
 70
    70
  9
$TILEMODE
 70
     0
  9
$MAXACTVP
 70
    64
  9
$PINSBASE
 10
0.0
 20
0.0
 30
0.0
  9
$PLIMCHECK
 70
     0
  9
$PEXTMIN
 10
1.05
 20
0.6999999999999993
 30
0.0
  9
$PEXTMAX
 10
9.45
 20
6.300000000000001
 30
0.0
  9
$PLIMMIN
 10
0.8499999999999998
 20
0.0999999999999991
  9
$PLIMMAX
 10
9.650000000000002
 20
6.900000000000001
  9
$UNITMODE
 70
     0
  9
$VISRETAIN
 70
     1
  9
$PLINEGEN
 70
     0
  9
$PSLTSCALE
 70
     1
  9
$TREEDEPTH
 70
  3020
  9
$PICKSTYLE
 70
     1
  9
$CMLSTYLE
  2
STANDARD
  9
$CMLJUST
 70
     0
  9
$CMLSCALE
 40
1.0
  9
$PROXYGRAPHICS
 70
     1
  9
$MEASUREMENT
 70
     0
  0
ENDSEC
  0
SECTION
  2
CLASSES
  0
CLASS
  1
ACDBDICTIONARYWDFLT
  2
AcDbDictionaryWithDefault
  3
ObjectDBX Classes
 90
        0
280
     0
281
     0
  0
CLASS
  1
ACDBPLACEHOLDER
  2
AcDbPlaceHolder
  3
ObjectDBX Classes
 90
        0
280
     0
281
     0
  0
CLASS
  1
LAYOUT
  2
AcDbLayout
  3
ObjectDBX Classes
 90
        0
280
     0
281
     0
  0
CLASS
  1
DICTIONARYVAR
  2
AcDbDictionaryVar
  3
ObjectDBX Classes
 90
        0
280
     0
281
     0
  0
CLASS
  1
TABLESTYLE
  2
AcDbTableStyle
  3
ObjectDBX Classes
 90
     4095
280
     0
281
     0
  0
CLASS
  1
MATERIAL
  2
AcDbMaterial
  3
ObjectDBX Classes
 90
     1153
280
     0
281
     0
  0
CLASS
  1
VISUALSTYLE
  2
AcDbVisualStyle
  3
ObjectDBX Classes
 90
     4095
280
     0
281
     0
  0
CLASS
  1
SCALE
  2
AcDbScale
  3
ObjectDBX Classes
 90
     1153
280
     0
281
     0
  0
CLASS
  1
CELLSTYLEMAP
  2
AcDbCellStyleMap
  3
ObjectDBX Classes
 90
     1152
280
     0
281
     0
  0
CLASS
  1
RASTERVARIABLES
  2
AcDbRasterVariables
  3
ISM
 90
        0
280
     0
281
     0
  0
CLASS
  1
XRECORD
  2
AcDbXrecord
  3
AutoCAD 2000
 90
        0
280
     0
281
     0
  0
CLASS
  1
LWPOLYLINE
  2
AcDbPolyline
  3
AutoCAD 2000
 90
        0
280
     0
281
     1
  0
CLASS
  1
HATCH
  2
AcDbHatch
  3
AutoCAD 2000
 90
        0
280
     0
281
     1
  0
ENDSEC
  0
SECTION
  2
TABLES
  0
TABLE
  2
VPORT
  5
8
330
0
100
AcDbSymbolTable
 70
     1
  0
VPORT
  5
94
330
8
100
AcDbSymbolTableRecord
100
AcDbViewportTableRecord
  2
*ACTIVE
 70
     0
 10
0.0
 20
0.0
 11
1.0
 21
1.0
 12
159.5024827242989
 22
75.6771643937063
 13
0.0
 23
0.0
 14
0.5
 24
0.5
 15
0.5
 25
0.5
 16
0.0
 26
0.0
 36
1.0
 17
-27.66959356597982
 27
-19.53870295786208
 37
0.0
 40
81.99896131243013
 41
2.074168797953964
 42
50.0
 43
0.0
 44
0.0
 50
0.0
 51
0.0
 71
    16
 72
  1000
 73
     1
 74
     3
 75
     0
 76
     0
 77
     0
 78
     0
  0
ENDTAB
  0
TABLE
  2
LTYPE
  5
5
330
0
100
AcDbSymbolTable
 70
     1
  0
LTYPE
  5
14
330
5
100
AcDbSymbolTableRecord
100
AcDbLinetypeTableRecord
  2
BYBLOCK
 70
     0
  3

 72
    65
 73
     0
 40
0.0
  0
LTYPE
  5
15
330
5
100
AcDbSymbolTableRecord
100
AcDbLinetypeTableRecord
  2
BYLAYER
 70
     0
  3

 72
    65
 73
     0
 40
0.0
  0
LTYPE
  5
16
330
5
100
AcDbSymbolTableRecord
100
AcDbLinetypeTableRecord
  2
CONTINUOUS
 70
     0
  3
Solid line
 72
    65
 73
     0
 40
0.0
  0
ENDTAB
  0
TABLE
  2
LAYER
  5
2
102
{ACAD_XDICTIONARY
360
2B7
102
}
330
0
100
AcDbSymbolTable
 70
     4
  0
LAYER
  5
10
330
2
100
AcDbSymbolTableRecord
100
AcDbLayerTableRecord
  2
0
 70
     0
 62
     7
  6
CONTINUOUS
  0
LAYER
  5
E4
330
2
100
AcDbSymbolTableRecord
100
AcDbLayerTableRecord
  2
DEFPOINTS
 70
     0
 62
     7
  6
CONTINUOUS
  0
LAYER
  5
E5
330
2
100
AcDbSymbolTableRecord
100
AcDbLayerTableRecord
  2
OBRYS
 70
     0
 62
     5
  6
CONTINUOUS
1001
ACAECLAYERSTANDARD
1000

1000

  0
LAYER
  5
E8
330
2
100
AcDbSymbolTableRecord
100
AcDbLayerTableRecord
  2
KOTY
 70
     0
 62
     1
  6
CONTINUOUS
1001
ACAECLAYERSTANDARD
1000

1000

  0
ENDTAB
  0
TABLE
  2
STYLE
  5
3
330
0
100
AcDbSymbolTable
 70
     1
  0
STYLE
  5
11
330
3
100
AcDbSymbolTableRecord
100
AcDbTextStyleTableRecord
  2
STANDARD
 70
     0
 40
0.0
 41
1.0
 50
0.0
 71
     0
 42
0.2
  3
arial.ttf
  4

1001
ACAD
1000
Arial
1071
        0
  0
ENDTAB
  0
TABLE
  2
VIEW
  5
6
330
0
100
AcDbSymbolTable
 70
     0
  0
ENDTAB
  0
TABLE
  2
UCS
  5
7
330
0
100
AcDbSymbolTable
 70
     0
  0
ENDTAB
  0
TABLE
  2
APPID
  5
9
330
0
100
AcDbSymbolTable
 70
     2
  0
APPID
  5
12
330
9
100
AcDbSymbolTableRecord
100
AcDbRegAppTableRecord
  2
ACAD
 70
     0
  0
APPID
  5
E7
330
9
100
AcDbSymbolTableRecord
100
AcDbRegAppTableRecord
  2
ACAECLAYERSTANDARD
 70
     0
  0
ENDTAB
  0
TABLE
  2
DIMSTYLE
  5
A
330
0
100
AcDbSymbolTable
 70
     1
  0
DIMSTYLE
105
27
102
{ACAD_REACTORS
330
181
330
1AF
330
1B0
102
}
330
A
100
AcDbSymbolTableRecord
100
AcDbDimStyleTableRecord
  2
STANDARD
 70
     0
  3

  4

  5

  6

  7

 40
1.0
 41
0.18
 42
0.0625
 43
0.38
 44
0.18
 45
0.0
 46
0.0
 47
0.0
 48
0.0
140
0.18
141
0.09
142
0.0
143
25.4
144
1.0
145
0.0
146
1.0
147
0.09
 71
     0
 72
     0
 73
     1
 74
     1
 75
     0
 76
     0
 77
     0
 78
     0
170
     0
171
     2
172
     0
173
     0
174
     0
175
     0
176
     0
177
     0
178
     0
270
     2
271
     4
272
     4
273
     2
274
     2
340
11
275
     0
280
     0
281
     0
282
     0
283
     1
284
     0
285
     0
286
     0
287
     3
288
     0
  0
ENDTAB
  0
TABLE
  2
BLOCK_RECORD
  5
1
330
0
100
AcDbSymbolTable
 70
     7
  0
BLOCK_RECORD
  5
1F
330
1
100
AcDbSymbolTableRecord
100
AcDbBlockTableRecord
  2
*MODEL_SPACE
  0
BLOCK_RECORD
  5
58
330
1
100
AcDbSymbolTableRecord
100
AcDbBlockTableRecord
  2
*PAPER_SPACE
  0
BLOCK_RECORD
  5
5D
330
1
100
AcDbSymbolTableRecord
100
AcDbBlockTableRecord
  2
*PAPER_SPACE0
  0
BLOCK_RECORD
  5
10A
330
1
100
AcDbSymbolTableRecord
100
AcDbBlockTableRecord
  2
*D1
  0
BLOCK_RECORD
  5
144
330
1
100
AcDbSymbolTableRecord
100
AcDbBlockTableRecord
  2
*D2
  0
BLOCK_RECORD
  5
151
330
1
100
AcDbSymbolTableRecord
100
AcDbBlockTableRecord
  2
*D3
  0
BLOCK_RECORD
  5
1C9
330
1
100
AcDbSymbolTableRecord
100
AcDbBlockTableRecord
  2
*D4
  0
BLOCK_RECORD
  5
1D3
330
1
100
AcDbSymbolTableRecord
100
AcDbBlockTableRecord
  2
*D5
  0
BLOCK_RECORD
  5
1DD
330
1
100
AcDbSymbolTableRecord
100
AcDbBlockTableRecord
  2
*D6
  0
ENDTAB
  0
ENDSEC
  0
SECTION
  2
BLOCKS
  0
BLOCK
  5
20
330
1F
100
AcDbEntity
  8
0
100
AcDbBlockBegin
  2
*MODEL_SPACE
 70
     0
 10
0.0
 20
0.0
 30
0.0
  3
*MODEL_SPACE
  1

  0
ENDBLK
  5
21
330
1F
100
AcDbEntity
  8
0
100
AcDbBlockEnd
  0
BLOCK
  5
5A
330
58
100
AcDbEntity
 67
     1
  8
0
100
AcDbBlockBegin
  2
*PAPER_SPACE
 70
     0
 10
0.0
 20
0.0
 30
0.0
  3
*PAPER_SPACE
  1

  0
ENDBLK
  5
5B
330
58
100
AcDbEntity
 67
     1
  8
0
100
AcDbBlockEnd
  0
BLOCK
  5
5F
330
5D
100
AcDbEntity
  8
0
100
AcDbBlockBegin
  2
*PAPER_SPACE0
 70
     0
 10
0.0
 20
0.0
 30
0.0
  3
*PAPER_SPACE0
  1

  0
ENDBLK
  5
60
330
5D
100
AcDbEntity
  8
0
100
AcDbBlockEnd
  0
BLOCK
  5
10B
330
10A
100
AcDbEntity
  8
0
100
AcDbBlockBegin
  2
*D1
 70
     1
 10
0.0
 20
0.0
 30
0.0
  3
*D1
  1

  0
LINE
  5
10C
330
10A
100
AcDbEntity
  8
KOTY
 62
     0
100
AcDbLine
 10
16.00351057671753
 20
10.5
 30
0.0
 11
3.820000000000013
 21
10.5
 31
0.0
  0
LINE
  5
10D
330
10A
100
AcDbEntity
  8
KOTY
 62
     0
100
AcDbLine
 10
16.00351057671753
 20
55.5
 30
0.0
 11
3.820000000000016
 21
55.5
 31
0.0
  0
LINE
  5
10E
330
10A
100
AcDbEntity
  8
KOTY
 62
     0
100
AcDbLine
 10
4.000000000000013
 20
13.5
 30
0.0
 11
4.000000000000016
 21
52.5
 31
0.0
  0
SOLID
  5
10F
330
10A
100
AcDbEntity
  8
KOTY
 62
     0
100
AcDbTrace
 10
3.500000000000013
 20
13.5
 30
0.0
 11
4.500000000000013
 21
13.5
 31
0.0
 12
4.000000000000013
 22
10.5
 32
0.0
 13
4.000000000000013
 23
10.5
 33
0.0
  0
SOLID
  5
110
330
10A
100
AcDbEntity
  8
KOTY
 62
     0
100
AcDbTrace
 10
4.500000000000016
 20
52.5
 30
0.0
 11
3.500000000000016
 21
52.5
 31
0.0
 12
4.000000000000016
 22
55.5
 32
0.0
 13
4.000000000000016
 23
55.5
 33
0.0
  0
MTEXT
  5
111
330
10A
100
AcDbEntity
  8
KOTY
 62
     0
100
AcDbMText
 10
1.474500000000013
 20
29.89999999999998
 30
0.0
 40
3.0
 41
0.0
 71
     5
 72
     1
  1
\A1;45
 11
5.921189464667501E-17
 21
1.0
 31
0.0
  0
POINT
  5
112
330
10A
100
AcDbEntity
  8
DEFPOINTS
 62
     0
100
AcDbPoint
 10
16.06601057671753
 20
10.5
 30
0.0
  0
POINT
  5
113
330
10A
100
AcDbEntity
  8
DEFPOINTS
 62
     0
100
AcDbPoint
 10
16.06601057671753
 20
55.5
 30
0.0
  0
POINT
  5
114
330
10A
100
AcDbEntity
  8
DEFPOINTS
 62
     0
100
AcDbPoint
 10
4.000000000000014
 20
55.5
 30
0.0
  0
ENDBLK
  5
115
330
10A
100
AcDbEntity
  8
0
100
AcDbBlockEnd
  0
BLOCK
  5
145
330
144
100
AcDbEntity
  8
0
100
AcDbBlockBegin
  2
*D2
 70
     1
 10
0.0
 20
0.0
 30
0.0
  3
*D2
  1

  0
LINE
  5
146
330
144
100
AcDbEntity
  8
KOTY
 62
     0
100
AcDbLine
 10
16.06601057671753
 20
10.4375
 30
0.0
 11
16.06601057671753
 21
0.32
 31
0.0
  0
LINE
  5
147
330
144
100
AcDbEntity
  8
KOTY
 62
     0
100
AcDbLine
 10
74.56601057671753
 20
11.1875
 30
0.0
 11
74.56601057671753
 21
0.32
 31
0.0
  0
LINE
  5
148
330
144
100
AcDbEntity
  8
KOTY
 62
     0
100
AcDbLine
 10
19.06601057671753
 20
0.5
 30
0.0
 11
71.56601057671753
 21
0.5
 31
0.0
  0
SOLID
  5
149
330
144
100
AcDbEntity
  8
KOTY
 62
     0
100
AcDbTrace
 10
19.06601057671753
 20
1.0
 30
0.0
 11
19.06601057671753
 21
0.0
 31
0.0
 12
16.06601057671753
 22
0.5
 32
0.0
 13
16.06601057671753
 23
0.5
 33
0.0
  0
SOLID
  5
14A
330
144
100
AcDbEntity
  8
KOTY
 62
     0
100
AcDbTrace
 10
71.56601057671753
 20
0.0
 30
0.0
 11
71.56601057671753
 21
1.0
 31
0.0
 12
74.56601057671753
 22
0.5
 32
0.0
 13
74.56601057671753
 23
0.5
 33
0.0
  0
MTEXT
  5
14B
330
144
100
AcDbEntity
  8
KOTY
 62
     0
100
AcDbMText
 10
50.31601057671753
 20
3.0315
 30
0.0
 40
3.0
 41
0.0
 71
     5
 72
     1
  1
\A1;59
  0
POINT
  5
14C
330
144
100
AcDbEntity
  8
DEFPOINTS
 62
     0
100
AcDbPoint
 10
16.06601057671753
 20
10.5
 30
0.0
  0
POINT
  5
14D
330
144
100
AcDbEntity
  8
DEFPOINTS
 62
     0
100
AcDbPoint
 10
74.56601057671753
 20
11.25
 30
0.0
  0
POINT
  5
14E
330
144
100
AcDbEntity
  8
DEFPOINTS
 62
     0
100
AcDbPoint
 10
74.56601057671753
 20
0.5
 30
0.0
  0
ENDBLK
  5
14F
330
144
100
AcDbEntity
  8
0
100
AcDbBlockEnd
  0
BLOCK
  5
152
330
151
100
AcDbEntity
  8
0
100
AcDbBlockBegin
  2
*D3
 70
     1
 10
0.0
 20
0.0
 30
0.0
  3
*D3
  1

  0
LINE
  5
153
330
151
100
AcDbEntity
  8
KOTY
 62
     0
100
AcDbLine
 10
116.3660105767175
 20
10.4375
 30
0.0
 11
116.3660105767175
 21
0.32
 31
0.0
  0
LINE
  5
154
330
151
100
AcDbEntity
  8
KOTY
 62
     0
100
AcDbLine
 10
133.7660105767175
 20
10.4375
 30
0.0
 11
133.7660105767175
 21
0.32
 31
0.0
  0
LINE
  5
155
330
151
100
AcDbEntity
  8
KOTY
 62
     0
100
AcDbLine
 10
119.3660105767175
 20
0.5
 30
0.0
 11
130.7660105767175
 21
0.5
 31
0.0
  0
SOLID
  5
156
330
151
100
AcDbEntity
  8
KOTY
 62
     0
100
AcDbTrace
 10
119.3660105767175
 20
1.0
 30
0.0
 11
119.3660105767175
 21
0.0
 31
0.0
 12
116.3660105767175
 22
0.5
 32
0.0
 13
116.3660105767175
 23
0.5
 33
0.0
  0
SOLID
  5
157
330
151
100
AcDbEntity
  8
KOTY
 62
     0
100
AcDbTrace
 10
130.7660105767175
 20
0.0
 30
0.0
 11
130.7660105767175
 21
1.0
 31
0.0
 12
133.7660105767175
 22
0.5
 32
0.0
 13
133.7660105767175
 23
0.5
 33
0.0
  0
MTEXT
  5
158
330
151
100
AcDbEntity
  8
KOTY
 62
     0
100
AcDbMText
 10
125.0660105767175
 20
3.0315
 30
0.0
 40
3.0
 41
0.0
 71
     5
 72
     1
  1
\A1;18
  0
POINT
  5
159
330
151
100
AcDbEntity
  8
DEFPOINTS
 62
     0
100
AcDbPoint
 10
116.3660105767175
 20
10.5
 30
0.0
  0
POINT
  5
15A
330
151
100
AcDbEntity
  8
DEFPOINTS
 62
     0
100
AcDbPoint
 10
133.7660105767175
 20
10.5
 30
0.0
  0
POINT
  5
15B
330
151
100
AcDbEntity
  8
DEFPOINTS
 62
     0
100
AcDbPoint
 10
133.7660105767175
 20
0.5
 30
0.0
  0
ENDBLK
  5
15C
330
151
100
AcDbEntity
  8
0
100
AcDbBlockEnd
  0
BLOCK
  5
1E7
330
1C9
100
AcDbEntity
  8
0
100
AcDbBlockBegin
  2
*D4
 70
     1
 10
0.0
 20
0.0
 30
0.0
  3
*D4
  1

  0
LINE
  5
1CA
330
1C9
100
AcDbEntity
  8
KOTY
 62
     0
100
AcDbLine
 10
72.13648674323501
 20
42.34716577571215
 30
0.0
 11
59.95297616651749
 21
42.34716577571215
 31
0.0
  0
LINE
  5
1CB
330
1C9
100
AcDbEntity
  8
KOTY
 62
     0
100
AcDbLine
 10
72.13648674323501
 20
87.34716577571214
 30
0.0
 11
59.95297616651749
 21
87.34716577571214
 31
0.0
  0
LINE
  5
1CC
330
1C9
100
AcDbEntity
  8
KOTY
 62
     0
100
AcDbLine
 10
60.13297616651749
 20
45.34716577571215
 30
0.0
 11
60.13297616651749
 21
84.34716577571214
 31
0.0
  0
SOLID
  5
1CD
330
1C9
100
AcDbEntity
  8
KOTY
 62
     0
100
AcDbTrace
 10
59.63297616651749
 20
45.34716577571215
 30
0.0
 11
60.63297616651749
 21
45.34716577571215
 31
0.0
 12
60.13297616651749
 22
42.34716577571215
 32
0.0
 13
60.13297616651749
 23
42.34716577571215
 33
0.0
  0
SOLID
  5
1CE
330
1C9
100
AcDbEntity
  8
KOTY
 62
     0
100
AcDbTrace
 10
60.63297616651749
 20
84.34716577571214
 30
0.0
 11
59.63297616651749
 21
84.34716577571214
 31
0.0
 12
60.13297616651749
 22
87.34716577571214
 32
0.0
 13
60.13297616651749
 23
87.34716577571214
 33
0.0
  0
MTEXT
  5
1CF
330
1C9
100
AcDbEntity
  8
KOTY
 62
     0
100
AcDbMText
 10
57.60747616651749
 20
61.74716577571213
 30
0.0
 40
3.0
 41
0.0
 71
     5
 72
     1
  1
\A1;45
 11
0.0
 21
1.0
 31
0.0
  0
POINT
  5
1D0
330
1C9
100
AcDbEntity
  8
DEFPOINTS
 62
     0
100
AcDbPoint
 10
72.19898674323501
 20
42.34716577571215
 30
0.0
  0
POINT
  5
1D1
330
1C9
100
AcDbEntity
  8
DEFPOINTS
 62
     0
100
AcDbPoint
 10
72.19898674323501
 20
87.34716577571214
 30
0.0
  0
POINT
  5
1D2
330
1C9
100
AcDbEntity
  8
DEFPOINTS
 62
     0
100
AcDbPoint
 10
60.13297616651749
 20
87.34716577571214
 30
0.0
  0
ENDBLK
  5
1E8
330
1C9
100
AcDbEntity
  8
0
100
AcDbBlockEnd
  0
BLOCK
  5
1E9
330
1D3
100
AcDbEntity
  8
0
100
AcDbBlockBegin
  2
*D5
 70
     1
 10
0.0
 20
0.0
 30
0.0
  3
*D5
  1

  0
LINE
  5
1D4
330
1D3
100
AcDbEntity
  8
KOTY
 62
     0
100
AcDbLine
 10
72.19898674323501
 20
42.28466577571215
 30
0.0
 11
72.19898674323501
 21
32.16716577571215
 31
0.0
  0
LINE
  5
1D5
330
1D3
100
AcDbEntity
  8
KOTY
 62
     0
100
AcDbLine
 10
130.698986743235
 20
43.03466577571215
 30
0.0
 11
130.698986743235
 21
32.16716577571215
 31
0.0
  0
LINE
  5
1D6
330
1D3
100
AcDbEntity
  8
KOTY
 62
     0
100
AcDbLine
 10
75.19898674323501
 20
32.34716577571215
 30
0.0
 11
127.698986743235
 21
32.34716577571215
 31
0.0
  0
SOLID
  5
1D7
330
1D3
100
AcDbEntity
  8
KOTY
 62
     0
100
AcDbTrace
 10
75.19898674323501
 20
32.84716577571215
 30
0.0
 11
75.19898674323501
 21
31.84716577571215
 31
0.0
 12
72.19898674323501
 22
32.34716577571215
 32
0.0
 13
72.19898674323501
 23
32.34716577571215
 33
0.0
  0
SOLID
  5
1D8
330
1D3
100
AcDbEntity
  8
KOTY
 62
     0
100
AcDbTrace
 10
127.698986743235
 20
31.84716577571215
 30
0.0
 11
127.698986743235
 21
32.84716577571215
 31
0.0
 12
130.698986743235
 22
32.34716577571215
 32
0.0
 13
130.698986743235
 23
32.34716577571215
 33
0.0
  0
MTEXT
  5
1D9
330
1D3
100
AcDbEntity
  8
KOTY
 62
     0
100
AcDbMText
 10
101.448986743235
 20
34.87866577571215
 30
0.0
 40
3.0
 41
0.0
 71
     5
 72
     1
  1
\A1;59
  0
POINT
  5
1DA
330
1D3
100
AcDbEntity
  8
DEFPOINTS
 62
     0
100
AcDbPoint
 10
72.19898674323501
 20
42.34716577571215
 30
0.0
  0
POINT
  5
1DB
330
1D3
100
AcDbEntity
  8
DEFPOINTS
 62
     0
100
AcDbPoint
 10
130.698986743235
 20
43.09716577571215
 30
0.0
  0
POINT
  5
1DC
330
1D3
100
AcDbEntity
  8
DEFPOINTS
 62
     0
100
AcDbPoint
 10
130.698986743235
 20
32.34716577571215
 30
0.0
  0
ENDBLK
  5
1EA
330
1D3
100
AcDbEntity
  8
0
100
AcDbBlockEnd
  0
BLOCK
  5
1EB
330
1DD
100
AcDbEntity
  8
0
100
AcDbBlockBegin
  2
*D6
 70
     1
 10
0.0
 20
0.0
 30
0.0
  3
*D6
  1

  0
LINE
  5
1DE
330
1DD
100
AcDbEntity
  8
KOTY
 62
     0
100
AcDbLine
 10
172.498986743235
 20
42.28466577571215
 30
0.0
 11
172.498986743235
 21
32.16716577571215
 31
0.0
  0
LINE
  5
1DF
330
1DD
100
AcDbEntity
  8
KOTY
 62
     0
100
AcDbLine
 10
189.898986743235
 20
42.28466577571215
 30
0.0
 11
189.898986743235
 21
32.16716577571215
 31
0.0
  0
LINE
  5
1E0
330
1DD
100
AcDbEntity
  8
KOTY
 62
     0
100
AcDbLine
 10
175.498986743235
 20
32.34716577571215
 30
0.0
 11
186.898986743235
 21
32.34716577571215
 31
0.0
  0
SOLID
  5
1E1
330
1DD
100
AcDbEntity
  8
KOTY
 62
     0
100
AcDbTrace
 10
175.498986743235
 20
32.84716577571215
 30
0.0
 11
175.498986743235
 21
31.84716577571215
 31
0.0
 12
172.498986743235
 22
32.34716577571215
 32
0.0
 13
172.498986743235
 23
32.34716577571215
 33
0.0
  0
SOLID
  5
1E2
330
1DD
100
AcDbEntity
  8
KOTY
 62
     0
100
AcDbTrace
 10
186.898986743235
 20
31.84716577571215
 30
0.0
 11
186.898986743235
 21
32.84716577571215
 31
0.0
 12
189.898986743235
 22
32.34716577571215
 32
0.0
 13
189.898986743235
 23
32.34716577571215
 33
0.0
  0
MTEXT
  5
1E3
330
1DD
100
AcDbEntity
  8
KOTY
 62
     0
100
AcDbMText
 10
181.198986743235
 20
34.87866577571215
 30
0.0
 40
3.0
 41
0.0
 71
     5
 72
     1
  1
\A1;18
  0
POINT
  5
1E4
330
1DD
100
AcDbEntity
  8
DEFPOINTS
 62
     0
100
AcDbPoint
 10
172.498986743235
 20
42.34716577571215
 30
0.0
  0
POINT
  5
1E5
330
1DD
100
AcDbEntity
  8
DEFPOINTS
 62
     0
100
AcDbPoint
 10
189.898986743235
 20
42.34716577571215
 30
0.0
  0
POINT
  5
1E6
330
1DD
100
AcDbEntity
  8
DEFPOINTS
 62
     0
100
AcDbPoint
 10
189.898986743235
 20
32.34716577571215
 30
0.0
  0
ENDBLK
  5
1EC
330
1DD
100
AcDbEntity
  8
0
100
AcDbBlockEnd
  0
ENDSEC
  0
SECTION
  2
ENTITIES
  0
LINE
  5
178
330
1F
100
AcDbEntity
  8
OBRYS
100
AcDbLine
 10
130.698986743235
 20
43.09716577571215
 30
0.0
 11
130.698986743235
 21
86.59716577571214
 31
0.0
  0
LINE
  5
179
330
1F
100
AcDbEntity
  8
OBRYS
100
AcDbLine
 10
129.948986743235
 20
42.34716577571215
 30
0.0
 11
72.19898674323501
 21
42.34716577571215
 31
0.0
  0
LINE
  5
17A
330
1F
100
AcDbEntity
  8
OBRYS
100
AcDbLine
 10
129.948986743235
 20
87.34716577571214
 30
0.0
 11
72.19898674323501
 21
87.34716577571214
 31
0.0
  0
LINE
  5
17B
330
1F
100
AcDbEntity
  8
OBRYS
100
AcDbLine
 10
72.19898674323501
 20
42.34716577571215
 30
0.0
 11
72.19898674323501
 21
87.34716577571214
 31
0.0
  0
LINE
  5
17C
330
1F
100
AcDbEntity
  8
OBRYS
100
AcDbLine
 10
172.498986743235
 20
42.34716577571215
 30
0.0
 11
189.898986743235
 21
42.34716577571215
 31
0.0
  0
LINE
  5
17D
330
1F
100
AcDbEntity
  8
OBRYS
100
AcDbLine
 10
172.498986743235
 20
87.34716577571214
 30
0.0
 11
189.898986743235
 21
87.34716577571214
 31
0.0
  0
LINE
  5
17E
330
1F
100
AcDbEntity
  8
OBRYS
100
AcDbLine
 10
179.698986743235
 20
42.34716577571215
 30
0.0
 11
179.698986743235
 21
41.14716577571216
 31
0.0
  0
LINE
  5
17F
330
1F
100
AcDbEntity
  8
OBRYS
100
AcDbLine
 10
179.698986743235
 20
41.14716577571216
 30
0.0
 11
181.098986743235
 21
41.14716577571216
 31
0.0
  0
LINE
  5
180
330
1F
100
AcDbEntity
  8
OBRYS
100
AcDbLine
 10
130.698986743235
 20
58.76175708356994
 30
0.0
 11
130.698986743235
 21
59.21914915118624
 31
0.0
  0
DIMENSION
  5
181
330
1F
100
AcDbEntity
  8
KOTY
 62
     1
100
AcDbDimension
  2
*D4
 10
60.13297616651749
 20
87.34716577571214
 30
0.0
 11
60.13297616651749
 21
61.74716577571213
 31
0.0
 70
   160
  3
STANDARD
100
AcDbAlignedDimension
 13
72.19898674323501
 23
42.34716577571215
 33
0.0
 14
72.19898674323501
 24
87.34716577571214
 34
0.0
 50
90.0
100
AcDbRotatedDimension
1001
ACAD
1000
DSTYLE
1002
{
1070
     7
1000

1070
     6
1000

1070
     5
1000

1070
    73
1070
     0
1070
   278
1070
    44
1070
   147
1040
1.0
1070
   173
1070
     1
1070
    77
1070
     2
1070
   271
1070
     0
1070
    41
1040
3.0
1070
   140
1040
3.0
1002
}
  0
LINE
  5
182
330
1F
100
AcDbEntity
  8
OBRYS
100
AcDbLine
 10
172.498986743235
 20
87.34716577571214
 30
0.0
 11
172.498986743235
 21
42.34716577571215
 31
0.0
  0
LINE
  5
183
330
1F
100
AcDbEntity
  8
OBRYS
100
AcDbLine
 10
189.898986743235
 20
87.34716577571214
 30
0.0
 11
189.898986743235
 21
42.34716577571215
 31
0.0
  0
LINE
  5
184
330
1F
100
AcDbEntity
  8
OBRYS
100
AcDbLine
 10
104.698986743235
 20
42.34716577571215
 30
0.0
 11
104.698986743235
 21
41.64716577571216
 31
0.0
  0
LINE
  5
185
330
1F
100
AcDbEntity
  8
OBRYS
100
AcDbLine
 10
105.198986743235
 20
41.14716577571216
 30
0.0
 11
118.833562119373
 21
41.14716577571216
 31
0.0
  0
LINE
  5
186
330
1F
100
AcDbEntity
  8
OBRYS
100
AcDbLine
 10
121.4299485248816
 20
41.7380274309025
 30
0.0
 11
122.698986743235
 21
42.34716577571215
 31
0.0
  0
ARC
  5
187
330
1F
100
AcDbEntity
  8
OBRYS
100
AcDbCircle
 10
105.198986743235
 20
41.64716577571216
 30
0.0
 40
0.5000000000000002
100
AcDbArc
 50
180.0
 51
270.0
  0
LINE
  5
188
330
1F
100
AcDbEntity
  8
OBRYS
100
AcDbLine
 10
104.698986743235
 20
87.34716577571214
 30
0.0
 11
104.698986743235
 21
88.04716577571213
 31
0.0
  0
LINE
  5
189
330
1F
100
AcDbEntity
  8
OBRYS
100
AcDbLine
 10
105.198986743235
 20
88.54716577571213
 30
0.0
 11
118.833562119373
 21
88.54716577571213
 31
0.0
  0
LINE
  5
18A
330
1F
100
AcDbEntity
  8
OBRYS
100
AcDbLine
 10
121.4299485248816
 20
87.95630412052179
 30
0.0
 11
122.698986743235
 21
87.34716577571214
 31
0.0
  0
ARC
  5
18B
330
1F
100
AcDbEntity
  8
OBRYS
100
AcDbCircle
 10
105.198986743235
 20
88.04716577571213
 30
0.0
 40
0.5000000000000002
100
AcDbArc
 50
90.0
 51
180.0
  0
LINE
  5
18C
330
1F
100
AcDbEntity
  8
OBRYS
100
AcDbLine
 10
181.098986743235
 20
42.34716577571215
 30
0.0
 11
181.098986743235
 21
41.14716577571216
 31
0.0
  0
LINE
  5
18D
330
1F
100
AcDbEntity
  8
OBRYS
100
AcDbLine
 10
179.698986743235
 20
87.34716577571214
 30
0.0
 11
179.698986743235
 21
88.54716577571213
 31
0.0
  0
LINE
  5
18E
330
1F
100
AcDbEntity
  8
OBRYS
100
AcDbLine
 10
179.698986743235
 20
88.54716577571213
 30
0.0
 11
181.098986743235
 21
88.54716577571213
 31
0.0
  0
LINE
  5
18F
330
1F
100
AcDbEntity
  8
OBRYS
100
AcDbLine
 10
181.098986743235
 20
87.34716577571214
 30
0.0
 11
181.098986743235
 21
88.54716577571213
 31
0.0
  0
LINE
  5
190
330
1F
100
AcDbEntity
  8
OBRYS
100
AcDbLine
 10
130.698986743235
 20
60.04716577571214
 30
0.0
 11
135.198986743235
 21
60.04716577571214
 31
0.0
  0
LINE
  5
191
330
1F
100
AcDbEntity
  8
OBRYS
100
AcDbLine
 10
135.198986743235
 20
60.04716577571214
 30
0.0
 11
135.198986743235
 21
65.04716577571213
 31
0.0
  0
LINE
  5
192
330
1F
100
AcDbEntity
  8
OBRYS
100
AcDbLine
 10
130.698986743235
 20
65.04716577571213
 30
0.0
 11
135.198986743235
 21
65.04716577571213
 31
0.0
  0
LINE
  5
193
330
1F
100
AcDbEntity
  8
OBRYS
100
AcDbLine
 10
130.698986743235
 20
60.84716577571215
 30
0.0
 11
135.198986743235
 21
60.84716577571215
 31
0.0
  0
LINE
  5
194
330
1F
100
AcDbEntity
  8
OBRYS
100
AcDbLine
 10
130.698986743235
 20
79.04716577571213
 30
0.0
 11
131.798986743235
 21
79.04716577571213
 31
0.0
  0
LINE
  5
195
330
1F
100
AcDbEntity
  8
OBRYS
100
AcDbLine
 10
130.698986743235
 20
76.54716577571213
 30
0.0
 11
131.798986743235
 21
76.54716577571213
 31
0.0
  0
LINE
  5
196
330
1F
100
AcDbEntity
  8
OBRYS
100
AcDbLine
 10
132.298986743235
 20
78.54716577571213
 30
0.0
 11
132.298986743235
 21
77.04716577571213
 31
0.0
  0
ARC
  5
197
330
1F
100
AcDbEntity
  8
OBRYS
100
AcDbCircle
 10
131.798986743235
 20
78.54716577571213
 30
0.0
 40
0.5000000000000002
100
AcDbArc
 50
0.0
 51
90.0
  0
ARC
  5
198
330
1F
100
AcDbEntity
  8
OBRYS
100
AcDbCircle
 10
131.798986743235
 20
77.04716577571213
 30
0.0
 40
0.5000000000000002
100
AcDbArc
 50
270.0
 51
0.0
  0
LINE
  5
199
330
1F
100
AcDbEntity
  8
OBRYS
100
AcDbLine
 10
130.698986743235
 20
45.04716577571214
 30
0.0
 11
134.9549829979175
 21
45.04716577571214
 31
0.0
  0
LINE
  5
19A
330
1F
100
AcDbEntity
  8
OBRYS
100
AcDbLine
 10
130.698986743235
 20
46.14716577571216
 30
0.0
 11
135.498986743235
 21
46.14716577571216
 31
0.0
  0
LINE
  5
19B
330
1F
100
AcDbEntity
  8
OBRYS
100
AcDbLine
 10
130.698986743235
 20
46.44716577571217
 30
0.0
 11
135.498986743235
 21
46.44716577571217
 31
0.0
  0
LINE
  5
19C
330
1F
100
AcDbEntity
  8
OBRYS
100
AcDbLine
 10
130.698986743235
 20
47.24716577571213
 30
0.0
 11
135.1656534099017
 21
47.24716577571213
 31
0.0
  0
LINE
  5
19D
330
1F
100
AcDbEntity
  8
OBRYS
100
AcDbLine
 10
137.498986743235
 20
46.79716577571214
 30
0.0
 11
137.498986743235
 21
45.79716577571214
 31
0.0
  0
LINE
  5
19E
330
1F
100
AcDbEntity
  8
OBRYS
100
AcDbLine
 10
134.5951367371521
 20
46.44716577571217
 30
0.0
 11
134.5951367371521
 21
46.44716577571217
 31
0.0
  0
LINE
  5
19F
330
1F
100
AcDbEntity
  8
OBRYS
100
AcDbLine
 10
135.8241899952675
 20
47.17399504400482
 30
0.0
 11
137.498986743235
 21
46.79716577571214
 31
0.0
  0
LINE
  5
1A0
330
1F
100
AcDbEntity
  8
OBRYS
100
AcDbLine
 10
136.0083533226826
 20
45.238178243005
 30
0.0
 11
137.498986743235
 21
45.79716577571214
 31
0.0
  0
LINE
  5
1A1
330
1F
100
AcDbEntity
  8
OBRYS
100
AcDbLine
 10
135.498986743235
 20
46.14716577571216
 30
0.0
 11
135.498986743235
 21
45.59716577571215
 31
0.0
  0
LINE
  5
1A2
330
1F
100
AcDbEntity
  8
OBRYS
100
AcDbLine
 10
135.498986743235
 20
46.44716577571217
 30
0.0
 11
137.498986743235
 21
46.29716577571214
 31
0.0
  0
LINE
  5
1A3
330
1F
100
AcDbEntity
  8
OBRYS
100
AcDbLine
 10
137.498986743235
 20
46.29716577571214
 30
0.0
 11
135.498986743235
 21
45.59716577571215
 31
0.0
  0
LINE
  5
1A4
330
1F
100
AcDbEntity
  8
OBRYS
100
AcDbLine
 10
130.698986743235
 20
84.64720988026528
 30
0.0
 11
134.9549829979175
 21
84.64720988026528
 31
0.0
  0
LINE
  5
1A5
330
1F
100
AcDbEntity
  8
OBRYS
100
AcDbLine
 10
130.698986743235
 20
83.54720988026531
 30
0.0
 11
135.498986743235
 21
83.54720988026531
 31
0.0
  0
LINE
  5
1A6
330
1F
100
AcDbEntity
  8
OBRYS
100
AcDbLine
 10
130.698986743235
 20
83.2472098802653
 30
0.0
 11
135.498986743235
 21
83.2472098802653
 31
0.0
  0
LINE
  5
1A7
330
1F
100
AcDbEntity
  8
OBRYS
100
AcDbLine
 10
130.698986743235
 20
82.44720988026529
 30
0.0
 11
135.1656534099017
 21
82.44720988026529
 31
0.0
  0
LINE
  5
1A8
330
1F
100
AcDbEntity
  8
OBRYS
100
AcDbLine
 10
137.498986743235
 20
82.89720988026528
 30
0.0
 11
137.498986743235
 21
83.89720988026528
 31
0.0
  0
LINE
  5
1A9
330
1F
100
AcDbEntity
  8
OBRYS
100
AcDbLine
 10
134.5951367371521
 20
83.2472098802653
 30
0.0
 11
134.5951367371521
 21
83.2472098802653
 31
0.0
  0
LINE
  5
1AA
330
1F
100
AcDbEntity
  8
OBRYS
100
AcDbLine
 10
135.8241899952675
 20
82.5203806119726
 30
0.0
 11
137.498986743235
 21
82.89720988026528
 31
0.0
  0
LINE
  5
1AB
330
1F
100
AcDbEntity
  8
OBRYS
100
AcDbLine
 10
136.0083533226826
 20
84.45619741297241
 30
0.0
 11
137.498986743235
 21
83.89720988026528
 31
0.0
  0
LINE
  5
1AC
330
1F
100
AcDbEntity
  8
OBRYS
100
AcDbLine
 10
135.498986743235
 20
83.54720988026531
 30
0.0
 11
135.498986743235
 21
84.09720988026527
 31
0.0
  0
LINE
  5
1AD
330
1F
100
AcDbEntity
  8
OBRYS
100
AcDbLine
 10
135.498986743235
 20
83.2472098802653
 30
0.0
 11
137.498986743235
 21
83.39720988026528
 31
0.0
  0
LINE
  5
1AE
330
1F
100
AcDbEntity
  8
OBRYS
100
AcDbLine
 10
137.498986743235
 20
83.39720988026528
 30
0.0
 11
135.498986743235
 21
84.09720988026527
 31
0.0
  0
DIMENSION
  5
1AF
330
1F
100
AcDbEntity
  8
KOTY
100
AcDbDimension
  2
*D5
 10
130.698986743235
 20
32.34716577571215
 30
0.0
 11
101.448986743235
 21
32.34716577571215
 31
0.0
 70
   160
  3
STANDARD
100
AcDbAlignedDimension
 13
72.19898674323501
 23
42.34716577571215
 33
0.0
 14
130.698986743235
 24
43.09716577571215
 34
0.0
100
AcDbRotatedDimension
1001
ACAD
1000
DSTYLE
1002
{
1070
   271
1070
     0
1070
   278
1070
    44
1070
   147
1040
1.0
1070
   140
1040
3.0
1070
    41
1040
3.0
1070
    73
1070
     0
1070
    77
1070
     1
1002
}
  0
DIMENSION
  5
1B0
330
1F
100
AcDbEntity
  8
KOTY
100
AcDbDimension
  2
*D6
 10
189.898986743235
 20
32.34716577571215
 30
0.0
 11
181.198986743235
 21
32.34716577571215
 31
0.0
 70
   160
  1
18
  3
STANDARD
100
AcDbAlignedDimension
 13
172.498986743235
 23
42.34716577571215
 33
0.0
 14
189.898986743235
 24
42.34716577571215
 34
0.0
100
AcDbRotatedDimension
1001
ACAD
1000
DSTYLE
1002
{
1070
   271
1070
     0
1070
   278
1070
    44
1070
   147
1040
1.0
1070
   140
1040
3.0
1070
    41
1040
3.0
1070
    73
1070
     0
1070
    77
1070
     1
1002
}
  0
ARC
  5
1B1
330
1F
100
AcDbEntity
  8
OBRYS
100
AcDbCircle
 10
118.833562119373
 20
47.14716577571216
 30
0.0
 40
6.000000000000005
100
AcDbArc
 50
270.0
 51
295.6410058243051
  0
ARC
  5
1B2
330
1F
100
AcDbEntity
  8
OBRYS
100
AcDbCircle
 10
118.833562119373
 20
82.54716577571213
 30
0.0
 40
6.000000000000009
100
AcDbArc
 50
64.35899417569483
 51
90.0
  0
ARC
  5
1B3
330
1F
100
AcDbEntity
  8
OBRYS
100
AcDbCircle
 10
129.948986743235
 20
86.59716577571214
 30
0.0
 40
0.7500000000000003
100
AcDbArc
 50
0.0
 51
90.0
  0
ARC
  5
1B4
330
1F
100
AcDbEntity
  8
OBRYS
100
AcDbCircle
 10
129.948986743235
 20
43.09716577571215
 30
0.0
 40
0.7500000000000003
100
AcDbArc
 50
270.0
 51
0.0
  0
ARC
  5
1B5
330
1F
100
AcDbEntity
  8
OBRYS
100
AcDbCircle
 10
135.1656534099017
 20
44.24716577571213
 30
0.0
 40
3.0
100
AcDbArc
 50
77.3196165081797
 51
90.0
  0
ARC
  5
1B6
330
1F
100
AcDbEntity
  8
OBRYS
100
AcDbCircle
 10
134.9549829979175
 20
48.04716577571219
 30
0.0
 40
3.000000000000016
100
AcDbArc
 50
270.0
 51
290.556045219583
  0
ARC
  5
1B7
330
1F
100
AcDbEntity
  8
OBRYS
100
AcDbCircle
 10
135.1656534099017
 20
85.44720988026529
 30
0.0
 40
3.0
100
AcDbArc
 50
270.0
 51
282.6803834918204
  0
ARC
  5
1B8
330
1F
100
AcDbEntity
  8
OBRYS
100
AcDbCircle
 10
134.9549829979175
 20
81.64720988026528
 30
0.0
 40
3.000000000000016
100
AcDbArc
 50
69.4439547804171
 51
90.0
  0
ARC
  5
1B9
330
1F
100
AcDbEntity
  8
OBRYS
100
AcDbCircle
 10
178.3335807557509
 20
71.98290619631831
 30
0.0
 40
0.5976956066420848
100
AcDbArc
 50
179.3146252346619
 51
270.7994935088489
  0
ARC
  5
1BA
330
1F
100
AcDbEntity
  8
OBRYS
100
AcDbCircle
 10
177.622497908393
 20
71.27045953486942
 30
0.0
 40
0.6383054513142734
100
AcDbArc
 50
179.6055939084246
 51
270.4097607154941
  0
ARC
  5
1BB
330
1F
100
AcDbEntity
  8
OBRYS
100
AcDbCircle
 10
178.3335882614762
 20
73.71148314852059
 30
0.0
 40
0.597703079825413
100
AcDbArc
 50
89.16820802694194
 51
180.6851096422357
  0
ARC
  5
1BC
330
1F
100
AcDbEntity
  8
OBRYS
100
AcDbCircle
 10
177.6226432865823
 20
74.42378590749917
 30
0.0
 40
0.6384510032819078
100
AcDbArc
 50
89.60337953386042
 51
180.3966204661447
  0
ARC
  5
1BD
330
1F
100
AcDbEntity
  8
OBRYS
100
AcDbCircle
 10
184.065762715646
 20
73.71362253577809
 30
0.0
 40
0.5955758188666053
100
AcDbArc
 50
359.0900360803889
 51
90.90996391962476
  0
ARC
  5
1BE
330
1F
100
AcDbEntity
  8
OBRYS
100
AcDbCircle
 10
184.7753470406727
 20
74.42320686080484
 30
0.0
 40
0.6390262937611978
100
AcDbArc
 50
359.6556556322382
 51
90.34434436775666
  0
ARC
  5
1BF
330
1F
100
AcDbEntity
  8
OBRYS
100
AcDbCircle
 10
184.0637652150481
 20
71.98140255282016
 30
0.0
 40
0.5975583946169784
100
AcDbArc
 50
269.2846013352388
 51
0.8132008250965186
  0
ARC
  5
1C0
330
1F
100
AcDbEntity
  8
OBRYS
100
AcDbCircle
 10
184.7754926829775
 20
71.27103847257621
 30
0.0
 40
0.6388805009067713
100
AcDbArc
 50
269.6425153822457
 51
0.3421299938340494
  0
LINE
  5
1C1
330
1F
100
AcDbEntity
  8
OBRYS
100
AcDbLine
 10
178.3335882614762
 20
74.309186228346
 30
0.0
 11
184.0563042576522
 21
74.30912324408246
 31
0.0
  0
LINE
  5
1C2
330
1F
100
AcDbEntity
  8
OBRYS
100
AcDbLine
 10
177.6270628217441
 20
75.06222161397295
 30
0.0
 11
184.7753470406727
 21
75.06223315456606
 31
0.0
  0
LINE
  5
1C3
330
1F
100
AcDbEntity
  8
OBRYS
100
AcDbLine
 10
177.622497908393
 20
70.63215408355518
 30
0.0
 11
184.786353204148
 21
70.63215408355518
 31
0.0
  0
LINE
  5
1C4
330
1F
100
AcDbEntity
  8
OBRYS
100
AcDbLine
 10
178.3335807557509
 20
71.3852105896762
 30
0.0
 11
184.0563042576522
 21
71.38389073779723
 31
0.0
  0
LINE
  5
1C5
330
1F
100
AcDbEntity
  8
OBRYS
100
AcDbLine
 10
176.9842075801085
 20
71.27485339375772
 30
0.0
 11
176.9841922833004
 21
74.42378590749917
 31
0.0
  0
LINE
  5
1C6
330
1F
100
AcDbEntity
  8
OBRYS
100
AcDbLine
 10
177.7359279108957
 20
71.99005568831052
 30
0.0
 11
177.7358851816508
 21
73.71148314852059
 31
0.0
  0
LINE
  5
1C7
330
1F
100
AcDbEntity
  8
OBRYS
100
AcDbLine
 10
184.6612634239503
 20
71.98988343342268
 30
0.0
 11
184.6613385345126
 21
73.71362253577809
 31
0.0
  0
LINE
  5
1C8
330
1F
100
AcDbEntity
  8
OBRYS
100
AcDbLine
 10
185.4143617938408
 20
71.27485339375772
 30
0.0
 11
185.4143733344338
 21
74.42320686080484
 31
0.0
  0
SPLINE
  5
2B2
330
1F
100
AcDbEntity
  8
OBRYS
100
AcDbSpline
210
0.0
220
0.0
230
1.0
 70
     8
 71
     3
 72
     8
 73
     4
 74
     0
 42
0.0000000001
 43
0.0000000001
 40
0.0
 40
0.0
 40
0.0
 40
0.0
 40
1.0
 40
1.0
 40
1.0
 40
1.0
 10
186.2023968489422
 20
65.01731121250396
 30
0.0
 10
186.5882477978339
 20
65.40316216139564
 30
0.0
 10
186.8052889565855
 20
65.92681702060574
 30
0.0
 10
186.8052889565855
 20
66.47286501524275
 30
0.0
  0
SPLINE
  5
2B3
330
1F
100
AcDbEntity
  8
OBRYS
100
AcDbSpline
210
0.0
220
0.0
230
1.0
 70
     8
 71
     3
 72
     8
 73
     4
 74
     0
 42
0.0000000001
 43
0.0000000001
 40
0.0
 40
0.0
 40
0.0
 40
0.0
 40
1.0
 40
1.0
 40
1.0
 40
1.0
 10
184.3737389590161
 20
63.18865332257784
 30
0.0
 10
184.0095921259995
 20
62.82450648956126
 30
0.0
 10
183.8052978289524
 20
62.33082398084534
 30
0.0
 10
183.8052978289524
 20
61.81612637580594
 30
0.0
  0
LWPOLYLINE
  5
2B4
330
1F
100
AcDbEntity
  8
OBRYS
100
AcDbPolyline
 90
        2
 70
     0
 43
0.0
 10
186.2023968489422
 20
65.01731121250396
 10
184.3737389590161
 20
63.18865332257784
  0
LWPOLYLINE
  5
2B5
330
1F
100
AcDbEntity
  8
OBRYS
100
AcDbPolyline
 90
        2
 70
     0
 43
0.0
 10
183.8052978289524
 20
61.81612637580594
 10
183.8052978289524
 20
42.34716577571215
  0
LWPOLYLINE
  5
2B6
330
1F
100
AcDbEntity
  8
OBRYS
100
AcDbPolyline
 90
        2
 70
     0
 43
0.0
 10
186.8052889565855
 20
87.34716577571214
 10
186.8052889565855
 20
66.47286501524275
  0
VIEWPORT
  5
22B
330
58
100
AcDbEntity
 67
     1
  8
0
100
AcDbViewport
 10
0.0
 20
0.0
 30
0.0
 40
8.976000000000003
 41
6.936000000000003
 68
     1
 69
     1
1001
ACAD
1000
MVIEW
1002
{
1070
    16
1010
0.0
1020
0.0
1030
0.0
1010
0.0
1020
0.0
1030
1.0
1040
0.0
1040
6.936000000000003
1040
5.250000000000001
1040
3.5
1040
50.0
1040
0.0
1040
0.0
1070
     0
1070
   100
1070
     0
1070
     3
1070
     0
1070
     0
1070
     0
1070
     0
1040
0.0
1040
0.0
1040
0.0
1040
0.5
1040
0.5
1040
0.0
1040
0.0
1070
     0
1002
{
1002
}
1002
}
  0
VIEWPORT
  5
22C
330
58
100
AcDbEntity
 67
     1
  8
0
100
AcDbViewport
 10
5.25
 20
3.5
 30
0.0
 40
8.4
 41
5.600000000000001
 68
     2
 69
     2
1001
ACAD
1000
MVIEW
1002
{
1070
    16
1010
0.0
1020
0.0
1030
0.0
1010
0.0
1020
0.0
1030
1.0
1040
0.0
1040
90.99352719216793
1040
122.9919814548763
1040
60.19716577571215
1040
50.0
1040
0.0
1040
0.0
1070
     0
1070
   100
1070
     0
1070
     3
1070
     0
1070
     0
1070
     0
1070
     0
1040
0.0
1040
0.0
1040
0.0
1040
0.5
1040
0.5
1040
0.0
1040
0.0
1070
     0
1002
{
1002
}
1002
}
  0
ENDSEC
  0
SECTION
  2
OBJECTS
  0
DICTIONARY
  5
C
330
0
100
AcDbDictionary
  3
ACAD_GROUP
350
D
  3
ACAD_IMAGE_VARS
350
DC
  3
ACAD_MLINESTYLE
350
17
  3
ACAD_SCALELIST
350
2BD
  3
ACDBVARIABLEDICTIONARY
350
66
  3
APPDATA
350
E1
  3
DWGPROPS
350
2F9
  0
DICTIONARY
  5
2B7
330
2
100
AcDbDictionary
280
     1
  3
ACAD_LAYERSTATES
360
2B8
  3
ACLYDICTIONARY
360
2BA
  0
DICTIONARY
  5
D
102
{ACAD_REACTORS
330
C
102
}
330
C
100
AcDbDictionary
  0
RASTERVARIABLES
  5
DC
102
{ACAD_REACTORS
330
C
102
}
330
C
100
AcDbRasterVariables
 90
        0
 70
     1
 71
     1
 72
     5
  0
DICTIONARY
  5
17
102
{ACAD_REACTORS
330
C
102
}
330
C
100
AcDbDictionary
  3
STANDARD
350
18
  0
DICTIONARY
  5
2BD
102
{ACAD_REACTORS
330
C
102
}
330
C
100
AcDbDictionary
  0
DICTIONARY
  5
66
102
{ACAD_REACTORS
330
C
102
}
330
C
100
AcDbDictionary
  3
CANNOSCALE
350
2FA
  3
DIMASSOC
350
67
  3
HIDETEXT
350
6B
  0
DICTIONARY
  5
E1
102
{ACAD_REACTORS
330
C
102
}
330
C
100
AcDbDictionary
  0
XRECORD
  5
2F9
102
{ACAD_REACTORS
330
C
102
}
330
C
100
AcDbXrecord
  1
DWGPROPS COOKIE
  2

  3

  4

  6

  7

  8
jaromir.podrabsky
  9

300
=
301
=
302
=
303
=
304
=
305
=
306
=
307
=
308
=
309
=
 40
0.0
 41
2452643.063384259
 42
2458213.393134259
  1

 90
        0
  0
DICTIONARY
  5
2B8
102
{ACAD_REACTORS
330
2B7
102
}
330
2B7
100
AcDbDictionary
  0
DICTIONARY
  5
2BA
102
{ACAD_REACTORS
330
2B7
102
}
330
2B7
100
AcDbDictionary
1001
ACAD
1000
<All
  0
MLINESTYLE
  5
18
102
{ACAD_REACTORS
330
17
102
}
330
17
100
AcDbMlineStyle
  2
STANDARD
 70
     0
  3

 62
   256
 51
90.0
 52
90.0
 71
     2
 49
0.5
 62
   256
  6
BYLAYER
 49
-0.5
 62
   256
  6
BYLAYER
  0
DICTIONARYVAR
  5
2FA
102
{ACAD_REACTORS
330
66
102
}
330
66
100
DictionaryVariables
280
     0
  1
1:1
  0
DICTIONARYVAR
  5
67
102
{ACAD_REACTORS
330
66
102
}
330
66
100
DictionaryVariables
280
     0
  1
2
  0
DICTIONARYVAR
  5
6B
102
{ACAD_REACTORS
330
66
102
}
330
66
100
DictionaryVariables
280
     0
  1
1
  0
ENDSEC
  0
EOF
